Skip to main content

Maroon5 Live at Nissan Pavillion on 2008-08-16

by Maroon5



Maroon 5
August 16, 2008
Nissan Pavilion
Bristow VA, USA

Taper: travelinbeat (on AIM as "travelinbeat")
Location: Seat 102 R 17 (very first seat to the right of the soundbooth), just above head-level (see notes)
Source: CA-14's > CA-9100 Pre > iRiver H120 RockBox v.060803-2007
Editing: Tracking, EQ, periodic applause reduction, and fades were all done while the show was laid in Sony Soundforge 8.0 as a wav file.
Compression: Trader's Little Helper v.2.2.1 (Build 151)

DISK ONE
01 Harder to Breathe
02 If I Never See Your Face Again
03 Makes Me Wonder
04 Tangled
05 (Yea Yea Yea)
06 The Sun
07 Love's in Need of Love Today *
08 I Won't Go Home Without You
09 Can't Stop
10 Shiver
11 Sunday Morning
12 Wicked Game &
13 She Will Be Loved
14 This Love
15 Keep on Rockin' in the Free World ^

* by Stevie Wonder
& by Chris Isaak
^ by Neil Young


Collection Maroon5
Band/Artist Maroon5
Date August 16, 2008
Venue Nissan Pavillion
Location Bristow VA

Source CA-14's > CA-9100 Pre > iRiver H120
Lineage USB > soundforge 8.0 (tracking, EQ, periodic applause reduction, fades) > Trader's Little Helper v.2.2.1
Taped by travelinbeat
Transferred by travelinbeat


Notes

MISC NOTES:
This was a co-heading tour between Counting Crows and Maroon 5 featuring Sara Bareilles opening the show. I taped all three acts. For Sara's set I was allowed to fly my mic stand at the full 12ft. height, however Nissan Pavilion's Production Manager asked me to lower it for the two main acts. I raised and lowered the stand constantly in responce to the audience's reaction to the band (when the audience stood, the stand went up to about 6-6.5 feet, when they were sitting, it was lowered to be about 6 inches above the tops of their heads). Overall, I'm very happy with how the tapes came out, however this recording regrettably includes some cut-outs which resulted from loose connections. I tried my best to locate and turn down the affected areas, it's worst in track 10, when for over a minute towards the end of the song and during the band introductions the sound cuts out completely. I cut out the loud clips and inserted very rapid fade in's / out's to ease the distraction, however is it still rather jarring. Sorry for the technical issues, I hope it doesn't affect your overall appreciation of the recording!

length expanded size cdr WAVE problems fmt ratio filename
3:05.12 32661552 B -b- -- ---xx flac 0.5537 maroon5_2008-08-16_d1t01.flac
4:01.16 42549300 B -b- -- ---xx flac 0.5827 maroon5_2008-08-16_d1t02.flac
3:51.34 40829036 B -b- -- ---xx flac 0.5758 maroon5_2008-08-16_d1t03.flac
3:31.23 37273664 B -b- -- ---xx flac 0.5564 maroon5_2008-08-16_d1t04.flac
1:42.27 18055192 B -b- -- ---xx flac 0.5347 maroon5_2008-08-16_d1t05.flac
7:27.02 78856268 B -b- -- ---xx flac 0.5457 maroon5_2008-08-16_d1t06.flac
1:40.02 17645692 B -b- -- ---xx flac 0.3822 maroon5_2008-08-16_d1t07.flac
6:00.40 63598776 B -b- -- ---xx flac 0.5123 maroon5_2008-08-16_d1t08.flac
2:48.43 29737020 B -b- -- ---xx flac 0.5550 maroon5_2008-08-16_d1t09.flac
11:28.11 121389140 B -b- -- ---xx flac 0.4721 maroon5_2008-08-16_d1t10.flac
5:15.73 55738508 B -b- -- ---xx flac 0.5481 maroon5_2008-08-16_d1t11.flac
2:20.38 24784940 B -b- -- ---xx flac 0.3962 maroon5_2008-08-16_d1t12.flac
4:20.15 45899820 B -b- -- ---xx flac 0.5268 maroon5_2008-08-16_d1t13.flac
6:30.00 68796568 B -b- -- ---xx flac 0.5482 maroon5_2008-08-16_d1t14.flac
5:40.23 60030372 B -b- -- ---xx flac 0.5819 maroon5_2008-08-16_d1t15.flac
69:42.60 737845848 B 0.5288 (15 files)

Reviews

There are no reviews yet. Be the first one to write a review.
Download Options
31.9M
64KBPS M3U
31.9M
64KBPS MP3
31.9M
64KBPS MP3 ZIP
372.1M
FLAC
54.4M
OGG VORBIS
3.5K
TEXT
47.1K
TORRENT
196.9M
VBR M3U
196.9M
VBR MP3
101.4M
VBR ZIP
In Collection
Maroon5
In Collection
Live Music Archive
Uploaded by
peterwking
on 8/27/2008
Views
4,407
PEOPLE ALSO FOUND
Maroon5
by Maroon5
4,407
0
0
Source: CA-14's > CA-9100 Pre > iRiver H120
Jazzam
by Jazzam
337
0
0
Source: (DSBD + mbho 603a/ka200n > mp2) > t-mod edirol r4
Wayne Horvitz
by Wayne Horvitz
56
0
0
Source: schoeps cmc5-mk4 (cardioid, 2nd row center) > sonosax SX-M2 > Sony D3
Umphreys McGee
by Umphreys McGee
281
0
0
Source: studio projects lsd2 (card, xy) > t-mod edirol r4 (24/96)
Railroad Earth
by Railroad Earth
46
0
0
Source: studio projects LSD2 (xy) > busman t-mod edirol r4 (24/96)
Wayne Horvitz
by Wayne Horvitz
67
0
0
Source: Core sound binaurals (omni, on stand, 7') > Sony SBM-1 > Sony TCD-D8
Birdie Busch
by Birdie Busch
217
0
0
Source: mbho 603a/ka200n (cardioid) > sound devices mp-2 > edirol r09 (24/48)
Paradigm
by paradigm
175
0
0
Source: (DSBD + mbho 603a/ka200n > mp2) > t-mod edirol r4
Al and the Transamericans
by Al and the Transamericans
1,042
0
0
Source: studio projects LSDII (mid/side) > busman t-mod edirol r4 (24/96)
Charlie Hunter
by Charlie Hunter
174
0
0
Source: mbho 603/ka200n > mp2 > tascam da-p1 (16/48)